logo

Thor The Dark World 2013 English Movies HDRip XViD MSubs with Sam...

  • Category Movies
  • Type HD
  • Language English
  • Total size 899.5 MB
  • Uploaded By nehalpuja
  • Downloads 274
  • Last checked 1 day ago
  • Date uploaded 4 years ago
  • Seeders 1
  • Leechers 0

Infohash : 9E2DF2A7F46CD14675008B2E8176EEF0F8C2900D

Download Thor The Dark World 2013 English Movies HDRip XViD MSubs with Sample ~ ☻rDX☻ Torrent

Thor The Dark World 2013 English Movies HDRip XViD MSubs with Sample ~ ☻rDX☻

Please check SCREEN SHOTS first :

http://moviesreviews.cu.cc/2014/2/ThorTheDarkWorlddvd/1.html

http://moviesreviews.cu.cc/2014/2/ThorTheDarkWorlddvd/2.html

http://moviesreviews.cu.cc/2014/2/ThorTheDarkWorlddvd/3.html

http://moviesreviews.cu.cc/2014/2/ThorTheDarkWorlddvd/4.html

http://moviesreviews.cu.cc/2014/2/ThorTheDarkWorlddvd/5.html

http://moviesreviews.cu.cc/2014/2/ThorTheDarkWorlddvd/6.html


All rDX torrents are Seeding From the 1Gbps Seedbox 24X7

Download Thor The Dark World 2013 English Movies HDRip XViD MSubs with Sample ~ ☻rDX☻ Torrent

Download Thor The Dark World 2013 English Movies HDRip XViD MSubs with Sample ~ ☻rDX☻ Torrent

Download Thor The Dark World 2013 English Movies HDRip XViD MSubs with Sample ~ ☻rDX☻ Torrent

Format : Matroska
Format version : Version 4 / Version 2
File size : 891 MiB
Duration : 1h 52mn
Overall bit rate : 1 112 Kbps
Movie name : Thor The Dark World 2013 English Movies HDDVD XViD MSubs ~ rDX ~

Video
ID : 1
Format : MPEG-4 Visual
Format profile : Advanced [email protected]
Format settings, BVOP : Yes
Format settings, QPel : No
Format settings, GMC : No warppoints
Format settings, Matrix : Default (H.263)
Codec ID : V_MS/VFW/FOURCC / XVID
Codec ID/Hint : XviD
Duration : 1h 52mn
Bit rate : 962 Kbps
Width : 720 pixels
Height : 304 pixels
Display aspect ratio : 2.35:1
Frame rate mode : Constant
Frame rate : 23.976 fps
Color space : YUV
Chroma subsampling : 4:2:0
Bit depth : 8 bits
Scan type : Progressive
Compression mode : Lossy
Bits/(Pixel*Frame) : 0.183
Stream size : 771 MiB (86%)
Writing library : XviD 1.2.1 (UTC 2008-12-04)
Default : Yes
Forced : No

Audio
ID : 2
Format : MPEG Audio
Format version : Version 1
Format profile : Layer 3
Mode : Joint stereo
Codec ID : A_MPEG/L3
Codec ID/Hint : MP3
Duration : 1h 52mn
Bit rate mode : Constant
Bit rate : 128 Kbps
Channel(s) : 2 channels
Sampling rate : 48.0 KHz
Compression mode : Lossy
Stream size : 103 MiB (12%)
Writing library : LAME3.99r
Encoding settings : -m j -V 4 -q 2 -lowpass 17 -b 128
Default : Yes
Forced : No

Files:

  • Thor The Dark World 2013 English Movies HDDVD XViD MSubs ~ ☻rDX☻.mkv (891.5 MB)
  • Sample ~ Thor The Dark World 2013 English Movies HDDVD XViD MSubs ~ ☻rDX☻.mkv (7.0 MB)
Subs
  • English.srt (120.4 KB)
  • Greek.srt (98.6 KB)
  • Malay.srt (77.6 KB)
  • Portuguese.srt (74.6 KB)
  • Finnish.srt (74.5 KB)
  • Indonesian.srt (73.6 KB)
  • Norwegian.srt (73.3 KB)
  • Danish.srt (71.7 KB)
  • Dutch.srt (71.1 KB)
  • Polish.srt (69.1 KB)
  • Chinese 2.srt (67.3 KB)
  • Chinese.srt (65.8 KB)
  • Swedish.srt (57.0 KB)

There are currently no comments. Feel free to leave one :)

Code:

  • udp://tracker.publicbt.com:80/announce
  • udp://tracker.openbittorrent.com:80/announce
  • udp://tracker.istole.it:80/announce
  • udp://www.h33t.com:3310/announce
  • http://tracker.ex.ua/announce
  • udp://9.rarbg.com:2710/announce
  • udp://fr33domtracker.h33t.com:3310/announce
  • udp://11.rarbg.com:80/announce
  • udp://fr33dom.h33t.com:3310/announce
  • http://fr33dom.h33t.com:3310/announce

X
Attention! Use a VPN when Accessing Free Content !
Your IP address is - Country:
Your Internet provider Tracks your Activity! Hide your IP ADDRESS with a VPN!
Bonus: Get Lag-Free Streams & No popups with any VPN Purchased !

Download Here
SitemapSeason 0 Episode 22 Strung Out 4 | Battle Of Los ... | The Big Bang Theory