logo

Aliens vs Avatars (2011) BDRip XviD-AT

  • Category Movies
  • Type Divx/Xvid
  • Language English
  • Total size 705.2 MB
  • Uploaded By BLOVES
  • Downloads 168
  • Last checked 1 day ago
  • Date uploaded 6 years ago
  • Seeders 0
  • Leechers 0

Infohash : 6D77DFE2FA07FDBCB9590A72238E62D31FAC0B1A

Download Aliens vs Avatars (2011) BDRip XviD-AT Torrent

Aliens vs Avatars (2011) BDRip XviD-AT


Video
ID: 0
Format: MPEG-4 Visual
Format profile: Advanced [email protected]
Format settings, BVOP: Yes
Format settings, QPel: No
Format settings, GMC: No warppoints
Format settings, Matrix: Custom
Codec ID: XVID
Codec ID/Hint: XviD
Duration: 1h 19mn
Bit rate: 1 113 Kbps
Width: 608 pixels
Height: 352 pixels
Display aspect ratio: 16:9
Frame rate: 23.976 fps
Color space: YUV
Chroma subsampling: 4:2:0
Bit depth: 8 bits
Scan type: Progressive
Bits/(Pixel*Frame): 0.217
Stream size: 631 MiB (90%)
Writing library: XviD 1.2.1 (UTC 2008-12-04)

Audio
ID: 1
Format: MPEG Audio
Format version: Version 1
Format profile: Layer 3
Mode: Joint stereo
Mode extension: MS Stereo
Codec ID: 55
Codec ID/Hint: MP3
Duration: 1h 19mn
Bit rate mode: Variable
Bit rate: 118 Kbps
Nominal bit rate: 128 Kbps
Channel(s): 2 channels
Sampling rate: 48.0 KHz
Stream size: 66.8 MiB (9%)
Alignment: Aligned on interleaves
Interleave, duration: 24 ms (0.58 video frame)
Interleave, preload duration: 156 ms
Writing library: LAME3.98r
Encoding settings: -m j -V 4 -q 2 -lowpass 17 --abr 128

Files:

  • Aliens vs Avatars (2011) BDRip.XviD-AT.avi (705.2 MB)
  • nfo.nfo (3.4 KB)

Comments

Code:

  • http://tracker.torrenting.com:6969/b7d186cccde2a9e957b0159317ee0781/announce
  • http://fr33dom.h33t.com:3310/announce

X
Attention! Use a VPN when Accessing Free Content !
Your IP address is - Country:
Your Internet provider Tracks your Activity! Hide your IP ADDRESS with a VPN!
Bonus: Get Lag-Free Streams & No popups with any VPN Purchased !

Download Here
Sitemap暗杀[国语] | Скачать | Magnet link