logo

Skyscraper 2018 1080p BluRay x264 DTS 5.1 MSubS - Hon3yHD

  • Category Movies
  • Type HD
  • Language English
  • Total size 4.4 GB
  • Uploaded By Hon3yHD
  • Downloads 296
  • Last checked 13 minutes ago
  • Date uploaded 3 weeks ago
  • Seeders 24
  • Leechers 15

Skyscraper

ActionThrillerDrama

Framed and on the run, a former FBI agent must save his family from a blazing fire in the world's tallest building.

Infohash : 34BE2CF6DD3E93E30C00EC82D8116148250C3DB6

Download Skyscraper 2018 1080p BluRay x264 DTS 5.1 MSubS - Hon3yHD Torrent


Skyscraper 2018 1080p BluRay x264 DTS 5.1 MSubS - Hon3yHD

Source : BD50 @ Scene . Thanks !

Format : Matroska
Format version : Version 4 / Version 2
File size : 4.37 GiB
Duration : 1 h 42 min
Overall bit rate : 6 109 kb/s
Movie name : Skyscraper 2018 - Hon3yHD


Video
ID : 1
Format : AVC
Format/Info : Advanced Video Codec
Format profile : [email protected]
Format settings : CABAC / 5 Ref Frames
Format settings, CABAC : Yes
Format settings, RefFrames : 5 frames
Codec ID : V_MPEG4/ISO/AVC
Duration : 1 h 42 min
Bit rate : 4 959 kb/s
Width : 1 920 pixels
Height : 800 pixels
Display aspect ratio : 2.40:1
Frame rate mode : Constant
Frame rate : 23.976 (24000/1001) FPS
Language : English
Default : Yes
Forced : No
Color range : Limited
Color primaries : BT.709
Transfer characteristics : BT.709
Matrix coefficients : BT.709

Audio #1
ID : 2
Format : DTS
Format/Info : Digital Theater Systems
Codec ID : A_DTS
Duration : 1 h 42 min
Bit rate mode : Constant
Bit rate : 768 kb/s
Channel(s) : 6 channels
Channel positions : Front: L C R, Side: L R, LFE
Sampling rate : 48.0 kHz
Frame rate : 93.750 FPS (512 SPF)
Bit depth : 24 bits
Compression mode : Lossy
Stream size : 563 MiB (13%)
Language : English
Default : Yes
Forced : No

Audio #2
ID : 3
Format : AC-3
Format/Info : Audio Coding 3
Codec ID : A_AC3
Duration : 1 h 42 min
Bit rate mode : Constant
Bit rate : 192 kb/s
Channel(s) : 2 channels
Channel positions : Front: L R
Sampling rate : 48.0 kHz
Frame rate : 31.250 FPS (1536 SPF)
Bit depth : 16 bits
Compression mode : Lossy
Stream size : 141 MiB (3%)
Title : Commentary
Language : English
Service kind : Complete Main
Default : No
Forced : No

Audio #3
ID : 4
Format : AC-3
Format/Info : Audio Coding 3
Codec ID : A_AC3
Duration : 1 h 42 min
Bit rate mode : Constant
Bit rate : 192 kb/s
Channel(s) : 2 channels
Channel positions : Front: L R
Sampling rate : 48.0 kHz
Frame rate : 31.250 FPS (1536 SPF)
Bit depth : 16 bits
Compression mode : Lossy
Stream size : 141 MiB (3%)
Title : Commentary
Language : English
Service kind : Complete Main
Default : No
Forced : No

Text #1
ID : 5
Format : UTF-8
Codec ID : S_TEXT/UTF8
Codec ID/Info : UTF-8 Plain Text
Duration : 1 h 32 min
Bit rate : 54 b/s
Count of elements : 1324
Stream size : 36.7 KiB (0%)
Language : English
Default : Yes
Forced : No

Text #2
ID : 6
Format : UTF-8
Codec ID : S_TEXT/UTF8
Codec ID/Info : UTF-8 Plain Text
Duration : 1 h 41 min
Bit rate : 39 b/s
Count of elements : 1119
Stream size : 29.6 KiB (0%)
Language : Spanish
Default : No
Forced : No

Text #3
ID : 7
Format : UTF-8
Codec ID : S_TEXT/UTF8
Codec ID/Info : UTF-8 Plain Text
Duration : 1 h 41 min
Bit rate : 43 b/s
Count of elements : 1078
Stream size : 32.5 KiB (0%)
Language : French
Default : No
Forced : No

Text #4
ID : 8
Format : UTF-8
Codec ID : S_TEXT/UTF8
Codec ID/Info : UTF-8 Plain Text
Duration : 1 h 41 min
Bit rate : 2 b/s
Count of elements : 67
Stream size : 1.69 KiB (0%)
Language : Spanish
Default : No
Forced : No

Text #5
ID : 9
Format : UTF-8
Codec ID : S_TEXT/UTF8
Codec ID/Info : UTF-8 Plain Text
Duration : 1 h 41 min
Bit rate : 3 b/s
Count of elements : 85
Stream size : 2.36 KiB (0%)
Language : French
Default : No
Forced : No

Menu
00:00:00.000 : en:00:00:00.000
00:04:24.764 : en:00:04:24.764
00:10:07.357 : en:00:10:07.357
00:16:09.927 : en:00:16:09.927
00:21:12.605 : en:00:21:12.605
00:25:34.992 : en:00:25:34.992
00:30:11.727 : en:00:30:11.727
00:35:23.913 : en:00:35:23.913
00:40:07.113 : en:00:40:07.113
00:47:18.961 : en:00:47:18.961
00:52:10.252 : en:00:52:10.252
00:58:16.785 : en:00:58:16.785
01:02:02.969 : en:01:02:02.969
01:05:29.634 : en:01:05:29.634
01:09:59.404 : en:01:09:59.404
01:14:31.425 : en:01:14:31.425
01:17:18.259 : en:01:17:18.259
01:23:33.342 : en:01:23:33.342
01:27:46.219 : en:01:27:46.219
01:32:54.569 : en:01:32:54.569


Download Skyscraper 2018 1080p BluRay x264 DTS 5.1 MSubS - Hon3yHD Torrent Download Skyscraper 2018 1080p BluRay x264 DTS 5.1 MSubS - Hon3yHD Torrent Download Skyscraper 2018 1080p BluRay x264 DTS 5.1 MSubS - Hon3yHD Torrent Download Skyscraper 2018 1080p BluRay x264 DTS 5.1 MSubS - Hon3yHD Torrent Download Skyscraper 2018 1080p BluRay x264 DTS 5.1 MSubS - Hon3yHD Torrent Download Skyscraper 2018 1080p BluRay x264 DTS 5.1 MSubS - Hon3yHD Torrent Download Skyscraper 2018 1080p BluRay x264 DTS 5.1 MSubS - Hon3yHD Torrent

Files:

Skyscraper 2018 1080p BluRay x264 DTS 5.1 MSubS - Hon3yHD
  • Hon3yHD.com.txt (0.0 KB)
  • Sample.mkv (32.1 MB)
  • Skyscraper 2018 1080p BluRay x264 DTS 5.1 MSubS - Hon3yHD.mkv (4.4 GB)
  • Torrent Seed By www.cyber-planet.in.txt (0.1 KB)

Comments

Code:

  • udp://tracker.coppersurfer.tk:6969/announce
  • udp://tracker.leechers-paradise.org:6969/announce
  • udp://tracker.pirateparty.gr:6969/announce
  • udp://tracker.coppersurfer.tk:6969
  • udp://eddie4.nl:6969/announce
  • udp://tracker.tiny-vps.com:6969/announce
  • udp://9.rarbg.me:2710/announce
  • udp://9.rarbg.to:2710/announce
  • udp://public.popcorn-tracker.org:6969/announce
  • udp://open.stealth.si:80/announce
  • udp://tracker.vanitycore.co:6969/announce
  • udp://ipv4.tracker.harry.lu:80/announce
  • udp://tracker.opentrackr.org:1337/announce
  • udp://bt.firebit.co.uk:6969/announce
  • udp://shadowshq.yi.org:6969/announce
X
Attention! Use a VPN when Accessing Free Content !
Your IP address is - Country:
Your Internet provider Tracks your Activity! Hide your IP ADDRESS with a VPN!
Bonus: Get Lag-Free Streams & No popups with any VPN Purchased !

Download Here
SitemapFilippo Timi | GoAnimateSpecjalne narzędzie dla twórców filmów | مسلسلات تركى 230 Drama HDTV مشاهدة الحلقة 1 الاولي من مسلسل مريم - Meryem التركي الموسم الاول مترجم اونلاين وتحميل...