logo

The Wayshower 2011 720p BDRip XviD ac3 (avi) [[email protected]]

  • Category Movies
  • Type Divx/Xvid
  • Language English
  • Total size 3.5 GB
  • Uploaded By greyshadow
  • Downloads 79
  • Last checked 1 day ago
  • Date uploaded 6 years ago
  • Seeders 0
  • Leechers 0

The Wayshower

Drama

Running from mistakes of the past, a man finds a secret book with ancient powers - a tool that can give him the answers he seeks. But a Dark Force has been awoken... one that will stop at nothing to reclaim the sacred text. When the book is stolen, an age long batte resumes. But his teacher: a "Wayshower", can only show him the path to victory, for he must win this epic battle on his own.

Infohash : 5BAA4BACEA4D9585F9C6599FC4714FB694905B0C


Download The Wayshower 2011 720p BDRip XviD ac3 (avi) [X@720] Torrent

Download The Wayshower 2011 720p BDRip XviD ac3 (avi) [X@720] Torrent

Download The Wayshower 2011 720p BDRip XviD ac3 (avi) [X@720] Torrent

FILM TITLE: The Wayshower (2011)

Genre: Drama

Rated PG-13 for some disturbing images

Release: 2011

Director: Jsu Garcia, John-Roger

Writer: Jsu Garcia (co-screenwriter), John-Roger (co-screenwriter)

Stars: Eric Roberts, Peter Stormare and Sally Kirkland

Country: USA

Language: English

Plot:
Running from his mistakes, Jesus heads to Helper, Utah to reconnect with his mentor/teacher
John-Roger's past. Through dreams and a Mystical book, he learns from his mentor's past-life
mistakes. He realizes he must confront his own inner conflict, forgiving the past and self
examining himself, he finds peace and reunites with his Mentor/teacher.

IMDB Rating: 2.1/10 from 138 users

http://www.imdb.com/title/tt1640570/



Download The Wayshower 2011 720p BDRip XviD ac3 (avi) [X@720] Torrent

Download The Wayshower 2011 720p BDRip XviD ac3 (avi) [X@720] Torrent
Download The Wayshower 2011 720p BDRip XviD ac3 (avi) [X@720] Torrent
Download The Wayshower 2011 720p BDRip XviD ac3 (avi) [X@720] Torrent
Download The Wayshower 2011 720p BDRip XviD ac3 (avi) [X@720] Torrent
Download The Wayshower 2011 720p BDRip XviD ac3 (avi) [X@720] Torrent

Download The Wayshower 2011 720p BDRip XviD ac3 (avi) [X@720] Torrent

General
Complete name : The Wayshower 2011 720p BDRip XviD ac3 (avi) [[email protected]].avi
Format : AVI
Format/Info : Audio Video Interleave
Format profile : OpenDML
File size : 3.46 GiB
Duration : 1h 30mn
Overall bit rate : 5467 Kbps
Writing library : VirtualDub build 32842/release

Video
ID : 0
Format : MPEG-4 Visual
Format profile : [email protected]
Format settings, BVOP : No
Format settings, QPel : No
Format settings, GMC : No warppoints
Format settings, Matrix : Default (H.263)
Codec ID : XVID
Codec ID/Hint : XviD
Duration : 1h 30mn
Bit rate : 4817 Kbps
Width : 1280 pixels
Height : 528 pixels
Display aspect ratio : 2.40:1
Frame rate : 23.976 fps
Color space : YUV
Chroma subsampling : 4:2:0
Bit depth : 8 bits
Scan type : Progressive
Compression mode : Lossy
Bits/(Pixel*Frame) : 0.297
Stream size : 3.05 GiB (88%)
Writing library : XviD 64

Audio
ID : 1
Format : AC-3
Format/Info : Audio Coding 3
Mode extension : CM (complete main)
Codec ID : 2000
Duration : 1h 30mn
Bit rate mode : Constant
Bit rate : 640 Kbps
Channel(s) : 6 channels
Channel positions : Front: L C R, Side: L R, LFE
Sampling rate : 48.0 KHz
Bit depth : 16 bits
Compression mode : Lossy
Stream size : 415 MiB (12%)
Alignment : Aligned on interleaves
Interleave, duration : 42 ms (1.00 video frame)
Interleave, preload duration : 512 ms

**************************************************************************************************

Video Source: The Wayshower 2011 1080p Blu-ray Remux AVC DTS-HD Ma5.1-KraLiMaRKo (18.6GB)

Thanks: (hd-torrents.org)

**************************************************************************************************

I provide a small sample, so please download this to check your
compatibility first if you are unsure.

**************************************************************************************************

I am providing tutorials here :-
http://tutorials4all.freeforums.org/index.php?sid=fb109f91dedb2901c4d0b39625c431f7
This is for opening my mkv encodes, remuxing to Bluray for PS3 or mkv or mp4 with
additional or selected audio or subtitles which I will now start supplying, so if your
fed up finding the right encode to match your player - DO IT YOURSELF - it's simples.

I allow transfer of my encodes to any site, just give me credit

***************************************************************************************************

Hash: 5BAA4BACEA4D9585F9C6599FC4714FB694905B0C

Code:

Trackers:
http://tracker.torrent.to:2710/announce
udp://tracker.1337x.org:80/announce
udp://tracker.openbittorrent.com:80/announce



***************************************************************************************************

Files:

  • Torrent downloaded from Demonoid.me.txt (0.0 KB)

There are currently no comments. Feel free to leave one :)

Code:

  • http://tracker.torrent.to:2710/announce
  • udp://tracker.1337x.org:80/announce
  • udp://tracker.openbittorrent.com:80/announce

X
Attention! Use a VPN when Accessing Free Content !
Your IP address is - Country:
Your Internet provider Tracks your Activity! Hide your IP ADDRESS with a VPN!
Bonus: Get Lag-Free Streams & No popups with any VPN Purchased !

Download Here
SitemapPlease Like Me | 10시간전 강남스캔들.E62.190219.720p NEXT | Protokolle des Bösen