logo

The Three Musketeers 2011 BRRip XviD Ac3 Feel-Free

  • Category Movies
  • Type Divx/Xvid
  • Language English
  • Total size 1.5 GB
  • Uploaded By pitic
  • Downloads 223
  • Last checked 10 hours ago
  • Date uploaded 6 years ago
  • Seeders 0
  • Leechers 0

Infohash : C59C8B05C7DD5AD2BDC5C35DB20BAB29AD8F8336

Download The Three Musketeers 2011 BRRip XviD Ac3 Feel-Free Torrent


Genre:Action | Adventure | Romance
Language:English
IMDb:http://www.imdb.com/title/tt1509767/
Source:720p BluRay x264-EHLE Thanks!

Format : AVI
Format/Info : Audio Video Interleave
File size : 1.54 GiB
Duration : 1h 50mn
Overall bit rate : 2 000 Kbps

Video
ID : 0
Format : MPEG-4 Visual
Format profile : Advanced [email protected]
Format settings, BVOP : 1
Format settings, QPel : No
Format settings, GMC : No warppoints
Format settings, Matrix : Default (H.263)
Codec ID : XVID
Codec ID/Hint : XviD
Duration : 1h 50mn
Bit rate : 1 543 Kbps
Width : 640 pixels
Height : 272 pixels
Display aspect ratio : 2.35:1
Frame rate : 23.976 fps
Color space : YUV
Chroma subsampling : 4:2:0
Bit depth : 8 bits
Scan type : Progressive
Compression mode : Lossy
Bits/(Pixel*Frame) : 0.370
Stream size : 1.19 GiB (77%)
Writing library : XviD 1.2.1 (UTC 2008-12-04)

Audio
ID : 1
Format : AC-3
Format/Info : Audio Coding 3
Mode extension : CM (complete main)
Codec ID : 2000
Duration : 1h 50mn
Bit rate mode : Constant
Bit rate : 448 Kbps
Channel(s) : 6 channels
Channel positions : Front: L C R, Side: L R, LFE
Sampling rate : 48.0 KHz
Bit depth : 16 bits
Compression mode : Lossy
Stream size : 354 MiB (22%)
Alignment : Aligned on interleaves
Interleave, duration : 42 ms (1.00 video frame)
Interleave, preload duration : 512 ms



Plot:
The hot-headed young D'Artagnan along with three former legendary but now down on their luck Musketeers must unite and defeat a beautiful double agent and her villainous employer from seizing the French throne and engulfing Europe in war

TRAILER:



Download The Three Musketeers 2011 BRRip XviD Ac3 Feel-Free Torrent
Download The Three Musketeers 2011 BRRip XviD Ac3 Feel-Free Torrent
Download The Three Musketeers 2011 BRRip XviD Ac3 Feel-Free Torrent
Download The Three Musketeers 2011 BRRip XviD Ac3 Feel-Free Torrent
Download The Three Musketeers 2011 BRRip XviD Ac3 Feel-Free Torrent

Greets:

INK,CRYS,IMAGINE,LKRG,FXG,3Li,FLAWL3SS,TA,iLLUSiON,ViSiON,DTRG SAFCuk009,LU,TheFalcon007,MYSTiC,PrisM,Noir,WBZ,LAP,Rx,Kingdom,SAFCuk009+Fabreezy,HDLiTE,TWiZTED,ETRG.ELEKTRI4KA,MAGNAT,CM8
And to all the other p2p grps past and present




Make sure its a real Feel-Free release @ http://extratorrent.com

Thanks to all who promotes release Feel-Free !!!

Files:

  • 2.JPG (49.1 KB)
  • The Three Musketeers 2011 BRRip XviD Ac3 Feel-Free.avi (1.5 GB)
  • The Three Musketeers 2011 BRRip XviD Ac3 Feel-Free.nfo (3.3 KB)
  • Torrent downloaded from Extratorrent.com.txt (0.2 KB)
  • vlcsnap-2012-02-03-08h49m20s91.png (171.3 KB)
  • vlcsnap-2012-02-03-08h52m02s178.png (279.5 KB)
  • vlcsnap-2012-02-03-08h52m10s3.png (309.8 KB)
  • vlcsnap-2012-02-03-08h52m31s193.png (290.4 KB)
  • vlcsnap-2012-02-03-08h57m02s92.png (374.3 KB)

Comments

Code:

  • http://pow7.com/announce
  • http://tracker.publicbt.com:80/announce
  • http://tracker.novalayer.org:6969/announce
  • http://10.rarbg.com/announce
  • http://tracker.istole.it/announce
  • http://tracker.torrent.to:2710/announce
  • udp://tracker.1337x.org:80/announnce
  • udp://tracker.1337x.org:80/announce
  • udp://tracker.publicbt.com:80/announce
  • udp://tracker.openbittorrent.com:80/announce

X
Attention! Use a VPN when Accessing Free Content !
Your IP address is - Country:
Your Internet provider Tracks your Activity! Hide your IP ADDRESS with a VPN!
Bonus: Get Lag-Free Streams & No popups with any VPN Purchased !

Download Here
SitemapSingapore | Siham Japonia 2019 L3ach9 M5rjch 3liya | Rocco FRENCH DVDRIP 2017