logo

Bron/Broen S04 E08 (Finale) - 720p x264 - (ENG SUBS) [BRSHNKV]

  • Category TV
  • Type HD
  • Language Swedish
  • Total size 510.5 MB
  • Uploaded By Baryshnikov
  • Downloads 4980
  • Last checked 5 months ago
  • Date uploaded 9 months ago
  • Seeders 77
  • Leechers 2

Infohash : 46A64602F5B9CF6E34693FF2F01E9ACC55939EC5

Download Bron/Broen S04 E08 (Finale) - 720p x264 - (ENG SUBS) [BRSHNKV] Torrent
Download Bron/Broen S04 E08 (Finale) - 720p x264 - (ENG SUBS) [BRSHNKV] Torrent
Download Bron/Broen S04 E08 (Finale) - 720p x264 - (ENG SUBS) [BRSHNKV] Torrent
Download Bron/Broen S04 E08 (Finale) - 720p x264 - (ENG SUBS) [BRSHNKV] Torrent
Download Bron/Broen S04 E08 (Finale) - 720p x264 - (ENG SUBS) [BRSHNKV] Torrent


Tech:

Format : MPEG-4
Format profile : Base Media / Version 2
Codec ID : mp42
File size : 511 MiB
Duration : 58mn 27s
Overall bit rate mode : Variable
Overall bit rate : 1 221 Kbps
Movie name : Bron/Broen S04 E08 - 720p x264 [BRSHNKV]
Encoded date : UTC 2018-02-18 14:28:01
Tagged date : UTC 2018-02-18 14:28:01
Writing application : HandBrake 1.0.2 2017012200

Video
ID : 1
Format : AVC
Format/Info : Advanced Video Codec
Format settings, CABAC : Yes
Format settings, ReFrames : 4 frames
Codec ID : avc1
Codec ID/Info : Advanced Video Coding
Duration : 58mn 27s
Bit rate : 1 050 Kbps
Width : 1 280 pixels
Height : 720 pixels
Display aspect ratio : 16:9
Frame rate mode : Constant
Frame rate : 25.000 fps
Color space : YUV
Chroma subsampling : 4:2:0
Bit depth : 8 bits
Scan type : Progressive
Bits/(Pixel*Frame) : 0.046
Stream size : 439 MiB (86%)
Writing library : x264 core 148 r2708 86b7198
Encoded date : UTC 2018-02-18 14:28:01
Tagged date : UTC 2018-02-18 14:28:01
Color range : Limited
Color primaries : BT.709
Transfer characteristics : BT.709
Matrix coefficients : BT.709

Audio
ID : 2
Format : AAC
Format/Info : Advanced Audio Codec
Format profile : LC
Codec ID : 40
Duration : 58mn 27s
Bit rate mode : Variable
Bit rate : 165 Kbps
Channel(s) : 2 channels
Channel positions : Front: L R
Sampling rate : 48.0 KHz
Compression mode : Lossy
Stream size : 68.8 MiB (13%)
Title : Stereo / Stereo
Language : Swedish
Encoded date : UTC 2018-02-18 14:28:01
Tagged date : UTC 2018-02-18 14:28:01

Files:

Bron:Broen S04 E08 (Finale) - 720p x264 - (ENG SUBS) [BRSHNKV]
  • Bron:Broen S04 E08 - x264 .mp4 (510.5 MB)
  • Bron:Broen S04 E08 - x264 .srt (31.8 KB)
  • Torrent Downloaded From Katcr.co - Kickasstorrents.txt (0.1 KB)

Comments

Code:

  • udp://tracker.coppersurfer.tk:6969/announce
  • udp://tracker.leechers-paradise.org:6969/announce
  • udp://tracker.pirateparty.gr:6969/announce

X
Attention! Use a VPN when Accessing Free Content !
Your IP address is - Country:
Your Internet provider Tracks your Activity! Hide your IP ADDRESS with a VPN!
Bonus: Get Lag-Free Streams & No popups with any VPN Purchased !

Download Here
SitemapBreak FRENCH HDRiP 2018 | Abuse/DMCA | Glitter Force Doki Doki