logo

Preacher.Season.01.720p.HDTV.x264-AVS

  • Category TV
  • Type HD
  • Language English
  • Total size 10.2 GB
  • Uploaded By CH3353
  • Downloads 1612
  • Last checked 6 hours ago
  • Date uploaded 2 years ago
  • Seeders 0
  • Leechers 1

Infohash : D5B0F8D60338666A2ED2D072176B93C80098DA44

Title: Preacher
Genre: Adventure | Drama | Fantasy
IMDB: http://www.imdb.com/title/tt5016504
Country: US
 
Duration : ~47 min
Width : 1280 pixels
Height : 720 pixels
Display aspect ratio : 16:9
Language: English
Subtitles: Portuguese (BR)

---------

General
Unique ID                   : 227684573027154962178394554909148405186 (0xAB4A742621049AB0B56264AAFEF55DC2)
Format                      : Matroska
Format version              : Version 4 / Version 2
File size                   : 1.42 GiB
Duration                    : 1h 4mn
Overall bit rate            : 3 175 Kbps
Encoded date                : UTC 2016-05-23 02:07:35
Writing application         : FastLE v2.5.0 - AVS
Writing library             : libx264 + libebml + libmatroska + libfastrar

Video
ID                          : 1
Format                      : AVC
Format/Info                 : Advanced Video Codec
Format profile              : [email protected]
Format settings, CABAC      : Yes
Format settings, ReFrames   : 5 frames
Codec ID                    : V_MPEG4/ISO/AVC
Duration                    : 1h 4mn
Bit rate                    : 2 728 Kbps
Width                       : 1 280 pixels
Height                      : 720 pixels
Display aspect ratio        : 16:9
Frame rate mode             : Constant
Frame rate                  : 23.976 (24000/1001) fps
Color space                 : YUV
Chroma subsampling          : 4:2:0
Bit depth                   : 8 bits
Scan type                   : Progressive
Bits/(Pixel*Frame)          : 0.123
Stream size                 : 1.22 GiB (86%)
Writing library             : x264 core 148 r2692 64f4e24
Default                     : Yes
Forced                      : No
Color range                 : Limited
Matrix coefficients         : BT.709

Audio
ID                          : 2
Format                      : AC-3
Format/Info                 : Audio Coding 3
Mode extension              : CM (complete main)
Format settings, Endianness : Big
Codec ID                    : A_AC3
Duration                    : 1h 4mn
Bit rate mode               : Constant
Bit rate                    : 384 Kbps
Channel(s)                  : 6 channels
Channel positions           : Front: L C R, Side: L R, LFE
Sampling rate               : 48.0 KHz
Frame rate                  : 31.250 fps (1536 spf)
Compression mode            : Lossy
Stream size                 : 176 MiB (12%)
Default                     : Yes
Forced                      : No

Download Preacher.Season.01.720p.HDTV.x264-AVS Torrent Download Preacher.Season.01.720p.HDTV.x264-AVS Torrent Download Preacher.Season.01.720p.HDTV.x264-AVS Torrent Download Preacher.Season.01.720p.HDTV.x264-AVS Torrent

Files:

  • Preacher.S01E01.720p.HDTV.x264-AVS.mkv (1.4 GB)
  • Preacher.S01E01.720p.HDTV.x264-AVS.srt (53.4 KB)
  • Preacher.S01E02.720p.HDTV.x264-AVS.mkv (1.0 GB)
  • Preacher.S01E02.720p.HDTV.x264-AVS.srt (39.1 KB)
  • Preacher.S01E03.720p.HDTV.x264-AVS.mkv (872.9 MB)
  • Preacher.S01E03.720p.HDTV.x264-AVS.srt (36.2 KB)
  • Preacher.S01E04.720p.HDTV.x264-AVS.mkv (924.5 MB)
  • Preacher.S01E04.720p.HDTV.x264-AVS.srt (39.7 KB)
  • Preacher.S01E05.INTERNAL.720p.HDTV.x264-KILLERS.mkv (934.5 MB)
  • Preacher.S01E05.INTERNAL.720p.HDTV.x264-KILLERS.srt (38.6 KB)
  • Preacher.S01E06.720p.HDTV.x264-AVS.mkv (989.5 MB)
  • Preacher.S01E06.720p.HDTV.x264-AVS.srt (37.9 KB)
  • Preacher.S01E07.720p.HDTV.x264-AVS.mkv (884.8 MB)
  • Preacher.S01E07.720p.HDTV.x264-AVS.srt (35.0 KB)
  • Preacher.S01E08.720p.HDTV.x264-AVS.mkv (986.4 MB)
  • Preacher.S01E08.720p.HDTV.x264-AVS.srt (36.2 KB)
  • Preacher.S01E09.720p.HDTV.x264-AVS.mkv (1,015.6 MB)
  • Preacher.S01E09.720p.HDTV.x264-AVS.srt (31.6 KB)
  • Preacher.S01E10.720p.HDTV.x264-AVS.mkv (1.3 GB)
  • Preacher.S01E10.720p.HDTV.x264-AVS.srt (41.2 KB)

There are currently no comments. Feel free to leave one :)

Code:

  • udp://tracker.opentrackr.org:1337/announce
  • udp://tracker.openbittorrent.com:80/announce
  • udp://tracker.leechers-paradise.org:6969/announce
  • udp://9.rarbg.me:2710/announce
X
Attention! Use a VPN when Accessing Free Content !
Your IP address is - Country:
Your Internet provider Tracks your Activity! Hide your IP ADDRESS with a VPN!
Bonus: Get Lag-Free Streams & No popups with any VPN Purchased !

Download Here
SitemapBeyblade Burst | Triple X 2 | Stream in HD