logo

*** BRAZZERS - BTIS - Boobs for All - Kendra Lust.m4v ***

  • Category XXX
  • Type Video
  • Language English
  • Total size 133.9 MB
  • Uploaded By SM128
  • Downloads 161
  • Last checked 6 months ago
  • Date uploaded 2 years ago
  • Seeders 0
  • Leechers 0

Infohash : 8704ED8079FB398E175D9B7C0752C7710C37D36B


SCREENSHOTS
Download *** BRAZZERS - BTIS - Boobs for All - Kendra Lust.m4v *** Torrent


Download *** BRAZZERS - BTIS - Boobs for All - Kendra Lust.m4v *** Torrent


General
Format : MPEG-4
Format profile : Base Media / Version 2
Codec ID : mp42
File size : 134 MiB
Duration : 25mn 17s
Overall bit rate mode : Variable

Video
ID : 1
Format : AVC
Format/Info : Advanced Video Codec
Format profile : [email protected]
Format settings, CABAC : Yes
Format settings, ReFrames : 4 frames
Codec ID : avc1
Codec ID/Info : Advanced Video Coding
Duration : 25mn 17s
Bit rate : 603 Kbps
Width : 640 pixels
Height : 360 pixels
Display aspect ratio : 16:9
Original display aspect ratio : 16:9
Frame rate mode : Variable
Frame rate : 29.970 fps
Minimum frame rate : 9.990 fps
Maximum frame rate : 29.970 fps
Color space : YUV
Chroma subsampling : 4:2:0
Bit depth : 8 bits
Scan type : Progressive
Bits/(Pixel*Frame) : 0.087
Stream size : 109 MiB (81%)
Writing library : x264 core 142 r2479 dd79a61

Audio
ID : 2
Format : AAC
Format/Info : Advanced Audio Codec
Format profile : LC
Codec ID : 40
Duration : 25mn 17s
Bit rate mode : Variable
Bit rate : 132 Kbps
Channel(s) : 2 channels
Channel positions : Front: L R
Sampling rate : 48.0 KHz
Compression mode : Lossy
Stream size : 23.6 MiB (18%)
Title : Stereo

Files:

  • BRAZZERS - BTIS - Boobs for All - Kendra Lust.m4v (133.9 MB)

There are currently no comments. Feel free to leave one :)

Code:

  • udp://tracker.coppersurfer.tk:6969/announce
  • udp://pornleech.com:2710/announce
  • udp://tracker.blackunicorn.xyz:6969/announce
  • udp://glotorrents.pw:6969/announce
  • udp://9.rarbg.to:2710/announce
  • udp://9.rarbg.me:2710/announce
  • udp://tracker.piratepublic.com:1337/announce
  • udp://p4p.arenabg.ch:1337/announce
  • udp://tracker.opentrackr.org:1337/announce
  • udp://tracker.aletorrenty.pl:2710/announce
  • udp://eddie4.nl:6969/announce
  • udp://zer0day.ch:1337/announce
  • udp://tracker.sktorrent.net:6969/announce
  • udp://thetracker.org:80/announce
  • udp://tracker.leechers-paradise.org:6969/announce

X
Attention! Use a VPN when Accessing Free Content !
Your IP address is - Country:
Your Internet provider Tracks your Activity! Hide your IP ADDRESS with a VPN!
Bonus: Get Lag-Free Streams & No popups with any VPN Purchased !

Download Here
SitemapMelissa Benoist | Euromania | Non-Alcoholic Drinks (1)