logo

Toy Soldiers (1991)[BRRip.1080p.x265-HEVC.AC3/DTS][Lektor i Napis...

  • Category Movies
  • Type h.264/x264
  • Language English
  • Total size 3.2 GB
  • Uploaded By alE13
  • Downloads 100
  • Last checked 1 day ago
  • Date uploaded 3 years ago
  • Seeders 0
  • Leechers 1

Toy Soldiers

ActionAdventureThriller

After federal agents arrest a drug czar and put him on trial, the cartel leader's vicious son storms a prep school and takes its students hostage. They rebel against the armed intruders and try to take back their academy by any means necessary.

Infohash : FEF8B7175BCFA237D981800FB9DB76306792F0AC

Download Toy Soldiers (1991)[BRRip.1080p.x265-HEVC.AC3/DTS][Lektor i Napisy PL/Eng][Eng] Torrent

http://www.imdb.com/title/tt0103112/
http://www.filmweb.pl/film/Szko%C5%82a+wyrzutk%C3%B3w-1991-37367

Produkcja:      USA
Gatunek:        Dramat, Akcja
Data premiery:  1991-04-26
Reżyseria:      Daniel Petrie Jr.
Scenariusz:     David Koepp, Daniel Petrie Jr.
Muzyka:         Robert Folk
Zdjęcia:        Thomas Burstyn
czas:           01:43:00

opis:

When terrorists seize control of a boarding school, a group of troublemaking boys decide
to resist them.

Do college'u Regis School trafiają zbuntowane dzieci wpływowych rodzin amerykańskich.
Wśród nich prym wiodą: Billy, Joey i Snuffy, którzy mieli już być wyrzuceni z tej szacownej
placówki więcej niż pół tuzina razy. Kiedy jednak szkoła zostaje opanowana przez terrorystów
- kolumbijskich handlarzy narkotyków, którzy zaminowują budynki i czekają na spełnienie swoich
żądań, to właśnie Billy, Joey i Snuffy, wykorzystując swoje zdolności, współpracują z policją
zdając celująco najtrudniejszy egzamin w życiu.

Download Toy Soldiers (1991)[BRRip.1080p.x265-HEVC.AC3/DTS][Lektor i Napisy PL/Eng][Eng] Torrent
Download Toy Soldiers (1991)[BRRip.1080p.x265-HEVC.AC3/DTS][Lektor i Napisy PL/Eng][Eng] Torrent
Download Toy Soldiers (1991)[BRRip.1080p.x265-HEVC.AC3/DTS][Lektor i Napisy PL/Eng][Eng] Torrent
Download Toy Soldiers (1991)[BRRip.1080p.x265-HEVC.AC3/DTS][Lektor i Napisy PL/Eng][Eng] Torrent

obsada:

Sean Astin, Wil Wheaton, Keith Coogan, Louis Gossett Jr.

dane techniczne:

Toy Soldiers (1991)-alE13.mkv
Format                      : Matroska
Format version              : Version 4 / Version 2
File size                   : 3.16 GiB
Duration                    : 1h 52mn
Overall bit rate            : 4 039 Kbps
Movie name                  : Toy Soldiers (1991)-alE13
Encoded date                : UTC 2015-07-27 08:25:20
Writing application         : mkvmerge v8.2.0 ('World of Adventure') 64bit
Writing library             : libebml v1.3.1 + libmatroska v1.4.2
DURATION                    : 01:43:00.413000000
NUMBER_OF_FRAMES            : 1093
NUMBER_OF_BYTES             : 5108608
_STATISTICS_WRITING_APP     : mkvmerge v8.2.0 ('World of Adventure') 64bit
_STATISTICS_WRITING_DATE_UT : 2015-07-27 08:25:20
_STATISTICS_TAGS            : BPS DURATION NUMBER_OF_FRAMES NUMBER_OF_BYTES

Video
ID                          : 1
Format                      : HEVC
Format/Info                 : High Efficiency Video Coding
Codec ID                    : V_MPEGH/ISO/HEVC
Duration                    : 1h 52mn
Bit rate                    : 2 934 Kbps
Width                       : 1 920 pixels
Height                      : 1 040 pixels
Display aspect ratio        : 1.85:1
Frame rate mode             : Constant
Frame rate                  : 23.976 fps
Bits/(Pixel*Frame)          : 0.061
Stream size                 : 2.30 GiB (73%)
Language                    : English
Default                     : Yes
Forced                      : No

Audio #1
ID                          : 2
Format                      : AC-3
Format/Info                 : Audio Coding 3
Mode extension              : CM (complete main)
Format settings, Endianness : Big
Codec ID                    : A_AC3
Duration                    : 1h 52mn
Bit rate mode               : Constant
Bit rate                    : 256 Kbps
Channel(s)                  : 2 channels
Channel positions           : Front: L R
Sampling rate               : 48.0 KHz
Compression mode            : Lossy
Delay relative to video     : 24ms
Stream size                 : 205 MiB (6%)
Language                    : English
Default                     : Yes
Forced                      : No

Audio #2
ID                          : 3
Format                      : DTS
Format/Info                 : Digital Theater Systems
Mode                        : 16
Format settings, Endianness : Big
Codec ID                    : A_DTS
Duration                    : 1h 52mn
Bit rate mode               : Constant
Bit rate                    : 768 Kbps
Channel(s)                  : 6 channels
Channel positions           : Front: L C R, Side: L R, LFE
Sampling rate               : 48.0 KHz
Bit depth                   : 16 bits
Compression mode            : Lossy
Stream size                 : 616 MiB (19%)
Title                       : Toy Soldiers (1991)-alE13_DTS
Language                    : English
Default                     : No
Forced                      : No

Text #1
ID                          : 4
Format                      : UTF-8
Codec ID                    : S_TEXT/UTF8
Codec ID/Info               : UTF-8 Plain Text
Title                       : Toy Soldiers (1991)-alE13
Language                    : English
Default                     : No
Forced                      : No

Text #2
ID                          : 5
Format                      : VobSub
Muxing mode                 : zlib
Codec ID                    : S_VOBSUB
Codec ID/Info               : Picture based subtitle format used on DVDs
Title                       : Toy Soldiers (1991)-alE13_color
Language                    : Polish
Default                     : Yes
Forced                      : No

Text #3
ID                          : 6
Format                      : UTF-8
Codec ID                    : S_TEXT/UTF8
Codec ID/Info               : UTF-8 Plain Text
Title                       : Toy Soldiers (1991)-alE13_srt
Language                    : Polish
Default                     : No
Forced                      : No

Text #4
ID                          : 7
Format                      : VobSub
Muxing mode                 : zlib
Codec ID                    : S_VOBSUB
Codec ID/Info               : Picture based subtitle format used on DVDs
Title                       : Toy Soldiers (1991)-alE13_color
Language                    : English
Default                     : No
Forced                      : No


Files:

  • Toy Soldiers (1991)-alE13.mkv (3.2 GB)
subtitles
  • subtitles.rar (6.8 MB)
info
  • 1.jpg (472.7 KB)
  • Nostalgie.jpg (138.4 KB)
  • Torrent downloadet from alE13 at filetracker.pl (0.2 KB)
  • Torrent downloaded from alE13 torrents at BTScene.org.txt (0.1 KB)
  • Torrent downloaded from demonoid.pw.txt (0.0 KB)
  • txt.jpg (124.5 KB)
  • poster.jpg (95.7 KB)

There are currently no comments. Feel free to leave one :)

Code:

  • http://torrent.gresille.org/announce.php
  • udp://exodus.desync.com:6969/announce
  • http://retracker.telecom.kz/announce
  • http://torrent.gresille.org/announce.php
  • http://torrent.gresille.org/announce.php
  • udp://inferno.demonoid.ph:3389/announce
  • http://retracker.telecom.kz/announce
  • http://announce.torrentsmd.com:8080/announce
  • http://tracker.filetracker.pl:8089/announce
  • http://tracker.torrenty.org:6969/announce
  • http://tracker.filetracker.pl:8089/announce
  • udp://tracker.aletorrenty.pl:2710/announce
  • http://torrent.gresille.org/announce
  • http://retracker.telecom.kz/announce.php
  • http://exodus.desync.com/announce
  • udp://open.demonii.com:1337/announce
  • udp://tracker.blackunicorn.xyz:6969/announce
  • udp://glotorrents.pw:6969/announce
  • udp://inferno.demonoid.ph:3389/announce
  • udp://tracker.ccc.de:80/announce

X
Attention! Use a VPN when Accessing Free Content !
Your IP address is - Country:
Your Internet provider Tracks your Activity! Hide your IP ADDRESS with a VPN!
Bonus: Get Lag-Free Streams & No popups with any VPN Purchased !

Download Here
Sitemap东平网络.rar | Anne Will | Heel Belgium drogisterij