logo

POVD.15.03.29.Dillion.Harper.Helping.Hand.XXX.1080p.MP4-KTR

  • Category XXX
  • Type Video
  • Language English
  • Total size 1.8 GB
  • Uploaded By JoeTheKing2
  • Downloads 96
  • Last checked 7 months ago
  • Date uploaded 3 years ago
  • Seeders 0
  • Leechers 0

Infohash : 6BBFC284DD5862DB9DD192558E8FD3A811E54488

Download POVD.15.03.29.Dillion.Harper.Helping.Hand.XXX.1080p.MP4-KTR Torrent


Download POVD.15.03.29.Dillion.Harper.Helping.Hand.XXX.1080p.MP4-KTR Torrent
Download POVD.15.03.29.Dillion.Harper.Helping.Hand.XXX.1080p.MP4-KTR Torrent


Download POVD.15.03.29.Dillion.Harper.Helping.Hand.XXX.1080p.MP4-KTR Torrent
Download POVD.15.03.29.Dillion.Harper.Helping.Hand.XXX.1080p.MP4-KTR Torrent


Download POVD.15.03.29.Dillion.Harper.Helping.Hand.XXX.1080p.MP4-KTR Torrent


POVD.15.03.29.Dillion.Harper.Helping.Hand.XXX.1080p.MP4-KTR

Genre.......: Adult
Files.......: 2
Video.......: MP4
Date........: 2015-03-29
URL.........: http://povd.com/

Put on your headphones and get ready for the most beautiful and immersive adult POV videos ever. Our videos are the closest thing to actually being there in the scene. With never-before-seen angles and the highest video quality on the web, our goal is to bring you the future of adult entertainment FIRST.



Video
ID : 1
Format : AVC
Format/Info : Advanced Video Codec
Format profile : [email protected]
Format settings, CABAC : No
Format settings, ReFrames : 2 frames
Codec ID : avc1
Codec ID/Info : Advanced Video Coding
Duration : 29mn 8s
Bit rate : 8 855 Kbps
Width : 1 920 pixels
Height : 1 080 pixels
Display aspect ratio : 16:9
Frame rate mode : Constant
Frame rate : 50.000 fps
Color space : YUV
Chroma subsampling : 4:2:0
Bit depth : 8 bits
Scan type : Progressive
Bits/(Pixel*Frame) : 0.085
Stream size : 1.80 GiB (99%)
Writing library : x264 core 142 r2431 a5831aa

Language : English
Encoded date : UTC 1904-01-01 00:00:00
Tagged date : UTC 1904-01-01 00:00:00

Audio
ID : 2
Format : AAC
Format/Info : Advanced Audio Codec
Format profile : LC
Codec ID : 40
Duration : 29mn 8s
Duration_LastFrame : 21ms
Bit rate mode : Constant
Bit rate : 128 Kbps
Channel(s) : 2 channels
Channel positions : Front: L R
Sampling rate : 48.0 KHz
Compression mode : Lossy
Stream size : 26.7 MiB (1%)
Language : English
Encoded date : UTC 1904-01-01 00:00:00
Tagged date : UTC 1904-01-01 00:00:00

Files:

  • RARBG.com.txt (0.0 KB)
  • povd.15.03.29.dillion.harper.helping.hand.mp4 (1.8 GB)
  • povd.15.03.29.dillion.harper.helping.hand.nfo (6.8 KB)

There are currently no comments. Feel free to leave one :)

Code:

  • http://tracker.trackerfix.com:80/announce
  • udp://9.rarbg.me:2710/announce
  • udp://11.rarbg.me:80/announce
  • udp://10.rarbg.me:80/announce
  • udp://12.rarbg.me:80/announce
  • udp://9.rarbg.com:2710/announce
  • udp://open.demonii.com:1337/announce

X
Attention! Use a VPN when Accessing Free Content !
Your IP address is - Country:
Your Internet provider Tracks your Activity! Hide your IP ADDRESS with a VPN!
Bonus: Get Lag-Free Streams & No popups with any VPN Purchased !

Download Here
SitemapPippa Black | Tower of Druaga Sword of Uruk | Ueno-san wa Bukiyou English Subbed