logo

Let the Right One In (2008) DVDRip XviD AC3 Soup

  • Category Movies
  • Type Divx/Xvid
  • Language Other
  • Total size 1.2 GB
  • Uploaded By peaSoup
  • Downloads 512
  • Last checked 2 hours ago
  • Date uploaded 3 years ago
  • Seeders 0
  • Leechers 0

Let the Right One In

DramaHorror

Set in 1982 in the suburb of Blackeberg, Stockholm, twelve-year-old Oskar is a lonely outsider, bullied at school by his classmates; at home, Oskar dreams of revenge against a trio of bullies. He befriends his twelve-year-old, next-door neighbor Eli, who only appears at night in the snow-covered playground outside their building.

Infohash : 64A2408F2B6A77806F6A52C65F62664BE7266DA0

Download Let the Right One In (2008) DVDRip XviD AC3 Soup Torrent Storyline

Oskar, a bullied 12-year old, dreams of revenge. He falls in love with Eli, a peculiar girl. She can't stand the sun or food and to come into a room she needs to be invited. Eli gives Oskar the strength to hit back but when he realizes that Eli needs to drink other people's blood to live he's faced with a choice. How much can love forgive? Set in the Stockholm suburb of Blackeberg in 1982. Download Let the Right One In (2008) DVDRip XviD AC3 Soup Torrent Download Let the Right One In (2008) DVDRip XviD AC3 Soup Torrent Download Let the Right One In (2008) DVDRip XviD AC3 Soup Torrent Download Let the Right One In (2008) DVDRip XviD AC3 Soup Torrent
Format : AVI
Format/Info : Audio Video Interleave
Format profile : OpenDML
File size : 1.21 GiB
Duration : 1h 50mn
Overall bit rate : 1 571 Kbps
Movie name : Let the Right One In (2008) DVDRip XviD AC3 Soup
Writing application : Lavf55.33.100
Original source form/Name : LET_THE_RIGHT_ONE_IN

Video
ID : 0
Format : MPEG-4 Visual
Format profile : Advanced [email protected]
Format settings, BVOP : 2
Format settings, QPel : No
Format settings, GMC : No warppoints
Format settings, Matrix : Default (MPEG)
Muxing mode : Packed bitstream
Codec ID : XVID
Codec ID/Hint : XviD
Duration : 1h 50mn
Bit rate : 1 366 Kbps
Width : 720 pixels
Height : 328 pixels
Display aspect ratio : 2.2:1
Frame rate : 25.000 fps
Color space : YUV
Chroma subsampling : 4:2:0
Bit depth : 8 bits
Scan type : Progressive
Compression mode : Lossy
Bits/(Pixel*Frame) : 0.231
Stream size : 1.05 GiB (87%)
Writing library : XviD 64

Audio
ID : 1
Format : AC-3
Format/Info : Audio Coding 3
Mode extension : CM (complete main)
Format settings, Endianness : Big
Codec ID : 2000
Duration : 1h 50mn
Bit rate mode : Constant
Bit rate : 192 Kbps
Channel(s) : 2 channels
Channel positions : Front: L R
Sampling rate : 48.0 KHz
Bit depth : 16 bits
Compression mode : Lossy
Stream size : 151 MiB (12%)
Alignment : Aligned on interleaves
Interleave, duration : 32 ms (0.80 video frame)

Files:

  • Let the Right One In (2008) DVDRip XviD AC3 Soup.avi (1.2 GB)
  • Let the Right One In (2008) DVDRip XviD AC3 Soup.idx (10.2 KB)
  • Let the Right One In (2008) DVDRip XviD AC3 Soup.sub (402.0 KB)

There are currently no comments. Feel free to leave one :)

Code:

  • udp://open.demonii.com:1337/announce
  • http://tracker.aletorrenty.pl:2710/announce
  • udp://inferno.demonoid.ph:3389/announce
  • http://bttracker.crunchbanglinux.org:6969/announce
  • http://torrent.gresille.org/announce
  • udp://9.rarbg.com:2710/announce
  • udp://coppersurfer.tk:6969/announce
  • udp://tracker.leechers-paradise.org:6969/announce

X
Attention! Use a VPN when Accessing Free Content !
Your IP address is - Country:
Your Internet provider Tracks your Activity! Hide your IP ADDRESS with a VPN!
Bonus: Get Lag-Free Streams & No popups with any VPN Purchased !

Download Here
SitemapAll the man that i need | Fairy Tail 543 | Xuyên Duyệt Tây Nguyên 3000 – Chap 85